#TITLE:7 Years' Love;
#SUBTITLE:;
#ARTIST:Kim Hyun Jung;
#TITLETRANSLIT:7 Years' Love;
#SUBTITLETRANSLIT:;
#ARTISTTRANSLIT:Kim Hyun Jung;
#CREDIT:;
#BANNER:7 Years' Love-bn.png;
#BACKGROUND:7 Years' Love-bg.png;
#LYRICSPATH:;
#CDTITLE:pm4cd.png;
#MUSIC:7 Years' Love.mp3;
#OFFSET:0.000;
#SAMPLESTART:83.040;
#SAMPLELENGTH:20.000;
#SELECTABLE:YES;
#BPMS:0.000=71.000,19.250=142.000,175.250=71.000,177.250=142.000,177.750=142.000,273.250=71.000,275.250=142.000,367.250=71.000,369.250=142.000,497.250=71.000,497.500=71.000,497.750=71.000,499.250=142.000,499.500=142.000;
#STOPS:;
#BGCHANGES:;
// cache tags:
#FIRSTBEAT:0.250;
#LASTBEAT:529.250;
#SONGFILENAME:Songs/Music V.I.P ^_^/7 Years' Love/7 Years' Love.sm;
#HASMUSIC:1;
#HASBANNER:1;
#MUSICLENGTH:238.581;
// end cache tags

//---------------dance-single - ----------------
#NOTES:
     dance-single:
     :
     Hard:
     12:
     0.893,0.971,1.000,0.025,1.000,1134.000,352.000,6.000,0.000,3.000:
0000
1000
0000
0100
0000
1010
0000
0001
0010
0000
0100
0000
0001
0000
0000
1000
,
0100
0000
0000
1000
0000
0101
0000
0010
0001
0000
1000
0000
0001
0000
0000
0000
,
0000
0000
0000
1000
0000
0101
0000
0100
0010
0000
1000
0000
0010
0000
0000
0100
,
1000
0000
0010
0000
0000
1010
0100
0010
0001
0000
1000
0010
0100
0000
0000
0000
,
0000
0000
0000
0000
0000
0000
0000
0000
0000
1000
0000
0100
0000
0110
0000
1000
,
0000
0101
0000
1000
0000
0110
0000
1000
0000
0101
0000
1000
0000
0110
0000
1000
,
0000
0101
0000
1000
0000
0110
0000
1000
0000
0101
0000
1000
0000
0110
0000
1000
,
0000
0101
0000
1000
0000
0110
0000
1000
0000
0101
0000
1000
0000
0110
0000
1000
,
0000
0101
0000
1000
0000
0110
0000
1000
0000
0101
0000
1000
0000
0110
0000
0001
,
0000
1010
0000
0001
0000
0110
0000
0001
0000
1010
0000
0001
0000
0110
0000
0001
,
0000
1010
0000
0001
0000
0110
0000
0001
0000
1010
0000
0001
0000
0110
0000
0001
,
0000
1010
0000
0001
0000
0110
0000
0001
0000
1010
0000
0100
0000
0001
0001
0010
,
0000
0001
0001
0100
0000
0001
0001
0010
0000
0001
0001
1100
0000
0001
0000
0010
,
0000
0101
0000
0010
0000
0100
0000
0010
0000
0101
0000
1000
0000
0010
0000
0100
,
0000
1010
0000
0001
0000
0100
0000
0010
0000
0101
0000
1000
0000
0010
0000
0100
,
0000
1010
0000
0001
0000
0100
0000
0010
0000
0101
0000
1000
0000
0010
0000
0100
,
0000
1010
0000
0001
0000
0100
0000
0010
0000
0101
0000
1000
0000
0010
0000
0100
,
0000
1010
0000
0001
0000
0100
0000
0010
0000
0101
0000
1000
0000
0010
0000
0100
,
0000
1010
0000
0001
0000
0100
0000
0010
0000
0101
0000
1000
0000
0010
0000
0100
,
0000
1010
0000
0001
0000
0100
0000
0010
0000
0101
0000
1000
0000
0010
0000
0001
,
0001
0100
0000
0001
0001
0010
0000
0001
0001
0100
0000
0001
0001
1000
0000
1000
,
0000
0110
0000
0100
0000
0001
0000
0001
0000
0110
0000
0010
0000
1000
0000
1000
,
0000
0110
0000
0100
0000
0001
0000
0001
0000
0110
0000
0010
0000
1000
0000
1000
,
0000
0110
0000
0100
0000
0001
0000
0001
0000
0110
0000
0010
0000
1000
0000
1000
,
0000
0110
0000
0100
0000
0001
0000
0001
0000
0110
0000
0010
0000
1000
0000
1000
,
0000
0110
0000
0100
0000
0001
0000
0001
0000
0110
0000
0010
0000
1000
0000
1000
,
0000
0110
0000
0100
0000
0001
0000
0001
0000
0110
0000
0010
0000
1000
0000
1000
,
0000
0110
0000
0100
0000
0001
0000
0001
0000
0110
0000
0010
0000
1000
0000
0010
,
0010
0100
0000
0010
0010
1000
0000
0010
0010
0100
0000
0010
0010
1100
0000
0100
,
0000
1010
0000
0100
0000
0011
0000
0010
0000
0101
0000
0010
0000
1100
0000
0100
,
0000
0101
0000
0010
0000
0011
0000
0010
0000
1010
0000
0100
0000
0110
0000
0010
,
0000
1010
0000
0100
0000
0110
0000
0010
0000
0101
0000
0010
0000
1100
0000
0100
,
0000
0101
0000
0010
0000
0011
0000
0010
0000
1010
0000
0100
0000
1000
0100
0010
,
0000
0101
0000
0010
0000
0110
0000
0100
0000
1010
0000
0100
0000
0001
0010
0100
,
0000
1010
0000
0100
0000
0110
0000
0010
0000
0101
0000
0010
0000
1001
0000
0100
,
0000
1001
0000
0010
0000
1001
0000
0100
0000
1001
0000
0010
0000
1000
0000
0010
,
0010
0100
0000
0010
0010
1000
0000
0010
0010
0100
0000
0010
0010
1000
0000
0100
,
0000
0010
0000
0100
0000
1001
0000
0010
0000
0100
0000
0010
0000
1001
0000
0100
,
0000
0010
0000
0100
0000
1001
0000
0010
0000
0100
0000
0010
0000
0101
0000
0010
,
0000
0100
0000
0010
0000
1001
0000
0010
0000
0100
0000
0010
0000
0101
0000
0010
,
0000
0100
0000
0010
0000
1001
0000
0010
0000
0100
0000
0010
0000
1001
0000
0000
,
0000
0101
0000
0000
0000
1001
0000
0000
0000
0101
0000
0000
0000
1001
0000
0001
,
0000
0101
0000
0001
0000
1001
0000
0001
0000
0101
0000
0001
0000
1001
0001
0001
,
0001
0101
0001
0001
0001
1001
0001
0001
0001
0101
0001
0001
0001
1001
0000
0000
,
0000
0000
0000
0000
0000
1100
0000
0101
0000
0011
0000
1010
0000
0110
0000
1010
,
0000
1100
0000
0101
0000
0110
0000
1010
0000
0011
0000
1010
0000
0110
0000
0101
,
0000
1100
0000
0101
0000
0110
0000
1010
0000
0011
0000
0101
0000
0110
0000
1010
,
0000
1100
0000
0101
0000
0110
0000
1010
0000
0011
0000
1010
0000
0110
0000
0101
,
0000
1100
0000
0101
0000
0110
0000
1010
0000
0011
0000
0101
0000
0110
0000
1010
,
0000
1100
0000
0101
0000
0110
0000
1010
0000
0011
0000
1010
0000
0011
0000
1010
,
0000
0110
0000
1010
0000
0110
0000
0101
0000
1100
0000
0101
0000
0110
0000
1010
,
0000
0011
0000
0101
0000
0110
0000
1010
0000
1100
0000
0101
0000
0011
0000
0101
,
0000
1100
0000
0101
0000
1000
0100
0010
0001
1000
0100
0010
0001
1000
0010
0100
,
0001
1000
0010
0100
0001
1000
0100
0010
0001
1000
0100
0010
0001
1000
0010
0100
,
0001
1000
0010
0100
0001
1000
0100
0010
0001
1000
0100
0010
0001
1000
0010
0100
,
0001
1000
0010
0100
0001
1000
0100
0010
0001
1000
0100
0010
0001
1000
0010
0100
,
0001
1000
0010
0100
0001
1000
0100
0010
0001
1000
0100
0010
0001
1000
0010
0100
,
0001
1000
0010
0100
0001
1000
0100
0010
0001
1000
0100
0010
0001
1000
0010
0100
,
0001
1000
0010
0100
0001
1010
0000
0110
0000
1010
0000
0110
0000
1010
0000
0110
,
0000
1010
0000
0110
0000
1010
0000
0110
0000
1010
0000
0110
0000
1010
0010
0110
,
0010
1010
0010
0110
0010
1010
0000
0010
0000
0101
0000
0001
0010
0100
0000
0100
,
0000
0110
0000
1000
0100
0010
0000
0010
0000
0110
0000
0001
0010
0100
0000
0100
,
0000
0110
0000
1000
0100
0010
0000
0010
0000
0110
0000
0001
0010
0100
0000
0100
,
0000
0110
0000
1000
0100
0010
0000
0010
0000
0110
0000
0001
0010
0100
0000
0100
,
0000
0110
0000
1000
0100
0010
0000
0010
0000
0110
0000
0001
0010
0100
0000
0100
,
0000
0110
0000
1000
0100
0010
0000
0010
0000
0110
0000
0001
0010
0100
0000
0100
,
0000
0110
0000
1000
0100
0010
0000
0010
0000
0110
0000
0001
0010
0100
0000
0100
,
0000
0110
0000
1000
0100
0010
0000
0010
0000
0110
0000
0001
0010
0100
0000
0100
,
0000
0110
0000
0000
0000
1001
0000
0000
0000
1000
0000
0100
0000
1010
0000
0000
,
0000
0001
0000
0010
0000
0000
0000
0100
0000
0000
0000
0001
0000
0000
0000
0000
,
0000
1000
0000
0100
0000
0000
0000
0000
0000
1000
0000
0000
0000
0101
0000
0000
,
0000
0010
0000
0001
0000
0000
0000
1000
0000
0000
0000
0002
0000
0000
0000
0000
,
0000
0000
0000
0000
0000
0000
0000
0000
0000
1003
0000
0000
0000
0101
0000
0000
,
0000
0100
0000
0010
0000
0000
0000
1000
0000
0000
0000
0010
0000
0000
0000
0000
,
0000
0100
0000
1000
0000
0000
0000
0010
0000
0000
0000
0000
0000
1010
0000
0100
,
0000
0010
0000
0001
0000
0000
0000
1000
0000
0010
0000
2000
0010
0010
0000
0100
,
0100
0010
0000
0100
0100
0001
0000
0100
0100
0010
0000
0100
0100
3011
0000
0100
,
0000
1010
0000
0100
0000
0001
0000
0010
0000
1100
0000
0010
0000
1000
0000
0100
,
0000
0011
0000
0100
0000
0001
0000
0010
0000
1100
0000
0010
0000
1000
0000
0100
,
0000
0011
0000
0100
0000
0001
0000
0010
0000
1100
0000
0010
0000
1000
0000
0100
,
0000
0011
0000
0100
0000
0001
0000
0010
0000
1100
0000
0010
0000
0001
0010
0100
,
0000
0010
0000
1000
0000
0100
0000
0010
0000
0101
0000
0010
0000
1000
0100
0010
,
0000
0001
0000
0100
0000
0010
0000
0001
0000
1010
0000
0100
0000
0001
0000
0100
,
0000
1010
0000
0001
0000
1000
0000
0010
0000
0101
0000
1000
1000
0010
0000
1000
,
1000
0100
0000
1000
1000
0010
0000
1000
1000
0100
0000
1000
1000
0101
0000
1000
,
0000
0011
0000
0010
0000
1010
0000
0001
0000
0110
0000
1000
0000
0101
0000
0010
,
0000
1100
0000
0100
0000
0101
0000
0001
0000
1001
0000
1000
0000
1010
0000
0001
,
0000
1100
0000
0010
0000
0101
0000
0010
0000
1001
0000
0100
0000
0110
0000
0010
,
0000
1010
0000
1000
0000
0101
0000
1000
0000
0011
0000
0001
0000
1001
0000
1000
,
0000
1010
0000
1000
0000
1001
0000
1000
0000
1010
0000
1000
0000
1001
0000
1000
,
0000
1010
0000
1000
0000
1001
0000
1000
0000
1010
0000
1000
0000
1001
1000
1000
,
1000
1010
1000
1000
1000
1001
1000
1000
1000
1010
1000
1000
1000
1001
0000
0000
,
0000
0000
0000
0000
0000
0011
0000
0101
0000
1001
0000
0110
0000
0011
0000
1001
,
0000
1010
0000
1100
0000
0011
0000
0110
0000
0101
0000
1010
0000
0011
0000
0101
,
0000
1010
0000
1001
0000
0011
0000
0110
0000
1010
0000
0110
0000
0011
0000
0101
,
0000
1001
0000
0110
0000
0011
0000
0101
0000
0110
0000
1010
0000
0011
0000
1001
,
0000
0110
0000
1001
0000
0011
0000
1010
0000
1001
0000
0101
0000
0011
0000
1100
,
0000
0110
0000
1010
0000
0011
0000
1010
0000
1001
0000
0110
0000
0011
0000
1010
,
0000
1100
0000
1010
0000
0011
0000
0110
0000
0101
0000
1100
0000
0011
0000
1001
,
0000
1100
0000
1010
0000
0011
0000
0101
0000
1010
0000
1001
0000
0011
0000
0110
,
0000
1100
0000
0110
0000
0001
0010
0100
1000
0001
0010
0100
1000
0001
0100
0010
,
1000
0001
0100
0010
1000
0001
0010
0100
1000
0001
0010
0100
1000
0001
0100
0010
,
1000
0001
0100
0010
1000
0001
0010
0100
1000
0001
0010
0100
1000
0001
0100
0010
,
1000
0001
0100
0010
1000
0001
0010
0100
1000
0001
0010
0100
1000
0001
0100
0010
,
1000
0001
0100
0010
1000
0001
0010
0100
1000
0001
0010
0100
1000
0001
0100
0010
,
1000
0001
0100
0010
1000
0001
0010
0100
1000
0001
0010
0100
1000
0001
0100
0010
,
1000
0001
0100
0010
1000
0101
0000
1100
0000
0101
0000
1100
0000
0101
0000
1100
,
0000
0101
0000
1100
0000
0101
0000
1100
0000
0101
0000
1100
0000
0101
0100
0100
,
0100
1100
0100
0100
0100
0101
0000
0010
0000
1001
0000
0100
0010
0001
0000
0001
,
0000
0011
0000
0010
0100
1000
0000
1000
0000
1100
0000
0100
0010
0001
0000
0001
,
0000
0011
0000
0010
0100
1000
0000
1000
0000
1100
0000
0100
0010
0001
0000
0001
,
0000
0011
0000
0010
0100
1000
0000
1000
0000
1100
0000
0100
0010
0001
0000
0001
,
0000
0011
0000
0010
0100
1000
0000
1000
0000
1100
0000
0100
0010
0001
0000
0001
,
0000
0011
0000
0010
0100
1000
0000
1000
0000
1100
0000
0100
0010
0001
0000
0001
,
0000
0011
0000
0010
0100
1000
0000
1000
0000
1100
0000
0100
0010
0001
0000
0001
,
0000
0011
0000
0010
0100
1000
0000
1000
0000
1100
0000
0100
0010
0001
0000
0001
,
0000
0011
0000
0010
0100
1000
0000
0001
0000
0000
0000
0100
0000
0000
0000
0010
,
0000
0000
0000
1000
0000
0000
0000
0001
0000
0000
0000
0010
0000
0000
0000
1000
,
0000
0000
0000
0100
0000
0000
0000
0010
0000
0000
0000
1000
0000
0000
0000
0001
,
0000
0000
0000
0100
0000
0000
0000
0010
0000
0000
0000
0001
0000
0000
0000
1000
,
0000
0000
0000
0100
0000
0000
0000
0010
0000
0000
0000
0100
0000
0000
0000
1000
,
0000
0000
0000
0001
0000
0000
0000
0100
0000
0000
0000
0001
0000
0000
0000
0100
,
0000
0000
0000
0010
0000
0000
0000
0100
0000
0000
0000
0001
0000
0000
0000
1000
,
0000
0000
0000
0002
0000
0000
0000
0100
0000
0000
0000
1000
0000
0000
0000
0100
,
0000
0000
0000
0010
0000
1010
0000
0000
0000
1000
0000
0100
0003
1010
0000
0000
,
0000
0001
0000
0010
0000
0000
0000
0100
0000
0000
0000
0001
0000
0000
0000
0000
,
0000
1000
0000
0100
0000
0000
0000
0000
0000
1000
0000
0000
0000
0101
0000
0000
,
0000
0010
0000
0001
0000
0000
0000
1000
0000
0000
0000
0002
0000
0000
0000
0000
,
0000
0000
0000
0000
0000
0000
0000
0000
0000
1003
0000
0000
0000
0101
0000
0000
,
0000
0100
0000
0010
0000
0000
0000
1000
0000
0000
0000
0010
0000
0000
0000
0000
,
0000
0100
0000
1000
0000
0000
0000
0010
0000
0000
0000
0000
0000
1010
0000
0100
,
0000
0010
0000
0001
0000
0000
0000
1000
0000
0010
0000
0200
0000
0020
0000
0000
,
0000
0000
0000
0000
0000
1331
0000
0000
0000
0000
0000
0000
0000
0000
0000
0000
;

//---------------dance-single - ----------------
#NOTES:
     dance-single:
     :
     Medium:
     1:
     0.000,0.000,0.000,0.000,0.000,0.000,0.000,0.000,0.000,0.000:
0000
0000
0000
0000
;
